IndeksCalendarFAQPencarianAnggotaGroupPendaftaranLogin

Share | 
 

 EAGLES - HOTEL CALIFORNIA VIDEO - 1080i DTS (RAPIDSHARE)

Topik sebelumnya Topik selanjutnya Go down 
PengirimMessage
batara
Derektor
Derektor


Jumlah posting : 1655
Join date : 27.05.08

PostSubyek: EAGLES - HOTEL CALIFORNIA VIDEO - 1080i DTS (RAPIDSHARE)   Wed Jun 24, 2009 6:56 pm

EAGLES - HOTEL CALIFORNIA - 1080i DTS




Info
Code:
Video
ID                              : 1
Format                          : MPEG Video
Format version                  : Version 2
Format profile                  : Main@High
Format settings, Matrix          : Default
Codec ID                        : V_MPEG2
Codec ID/Info                    : MPEG 1 or 2 Video
Duration                        : 7mn 8s
Bit rate mode                    : Variable
Bit rate                        : 16.8 Mbps
Nominal bit rate                : 38.8 Mbps
Width                            : 1 920 pixels
Height                          : 1 080 pixels
Display aspect ratio            : 16/9
Frame rate                      : 29.970 fps
Standard                        : Component
Colorimetry                      : 4:2:0
Scan type                        : Progressive
Scan order                      : Top Field First
Bits/(Pixel*Frame)              : 0.270
Stream size                      : 858 MiB (90%)
Title                            : VIDEO

Audio
ID                              : 2
Format                          : DTS
Format/Info                      : Digital Theater Systems
Codec ID                        : A_DTS
Duration                        : 7mn 9s
Bit rate mode                    : Constant
Bit rate                        : 1 510 Kbps
Channel(s)                      : 6 channels
Channel positions                : Front: L C R, Surround: L R, LFE
Sampling rate                    : 48.0 KHz
Resolution                      : 24 bits
Stream size                      : 77.2 MiB (8%)
Title                            : DTS eng
Language                        : English

Download - RS.com - 955 MB:
Code:
http://rapidshare.com/files/234057944/Eagles_-_Hotel_California__1080i_.part01.rar
http://rapidshare.com/files/234062339/Eagles_-_Hotel_California__1080i_.part02.rar
http://rapidshare.com/files/234067044/Eagles_-_Hotel_California__1080i_.part03.rar
http://rapidshare.com/files/234073767/Eagles_-_Hotel_California__1080i_.part04.rar
http://rapidshare.com/files/234079425/Eagles_-_Hotel_California__1080i_.part05.rar
http://rapidshare.com/files/234085721/Eagles_-_Hotel_California__1080i_.part06.rar
http://rapidshare.com/files/234090955/Eagles_-_Hotel_California__1080i_.part07.rar
http://rapidshare.com/files/234095526/Eagles_-_Hotel_California__1080i_.part08.rar
http://rapidshare.com/files/234100163/Eagles_-_Hotel_California__1080i_.part09.rar
http://rapidshare.com/files/234104697/Eagles_-_Hotel_California__1080i_.part10.rar
http://rapidshare.com/files/234109080/Eagles_-_Hotel_California__1080i_.part11.rar

Brilliant quality!
8-)

No password
Kembali Ke Atas Go down
Lihat profil user http://www.kamudanaku.co.cc
 
EAGLES - HOTEL CALIFORNIA VIDEO - 1080i DTS (RAPIDSHARE)
Topik sebelumnya Topik selanjutnya Kembali Ke Atas 
Halaman 1 dari 1
 Similar topics
-
» cara mudah donlod video youtube tanpa software!
» KNALPOT AHRS F4, VIDEO ADDED)
» Video Ninja 250R FREESTYLE !!
» "cewe?" cakep yang bkin cewe ngiri ^^
» ----> MisteRy of 3 LetteRs <----

Permissions in this forum:Anda tidak dapat menjawab topik
 :: sekedar bertukar hoby :: seputar komputer :: download :: video-
Navigasi: